Plasmodesma

by Vortex Count

/
  • Streaming + Download

    Includes unlimited streaming via the free Bandcamp app, plus high-quality download in MP3, FLAC and more.
    Purchasable with gift card

      $5 USD  or more

     

1.
2.
06:34 video
3.
00:31
4.
04:19 video
5.

about

vortex count - plasmodesma
[2018] [detroit underground DU]
CAT# DU-NTRL02



Plasmodesma (Pd) are units of co-axial membranous channels in the plant cell wall that in conjunction with associated phloem, form an intercellular communication network that supports the cell-to-cell and long-distance, providing a wide pathway spectrum of nutrients as endogenous proteins and complexes. The contribute of such macromolecules is of importance in the orchestration of non-cell autonomous developmental and physiological processes.

In abstract terms, Plasmodesma represents an structure that allows the flow of different facts on each person daily life which provides essential nutrients, as hope, well being, sensation of peace an calmness .. esentially, parameters to convert negative situations into a positive situations, all under a dark threat context that life brings us on each moment.

In Plasmodesma you will find mechanical rhythms, hypnotizing glitches and deep slow evolving textures, projected with a final purpose to represent the procedure.

Dedicated to Jone and Eva [ plasmodesma 1 | 2 ]



------------------------------------------------------------------


Tracks programmed and mixed by Vortex Count

Mastering : Pat Cooper (Coefficient Studio)

Graphic Design by ANTIREAL

Visuals are by Kesson Dalef [metthb] and Ergoset [ploem]

credits

released April 10, 2018

----------------------------------------------------------------------------------------------

Analyzed folder: /Users/pat/Desktop/PLASMODESMA - VER 2 [CM MASTER WAVS]/16 BIT

----------------------------------------------------------------------------------------------

DR Peak RMS Filename

----------------------------------------------------------------------------------------------

DR5 -0.30 dB -6.62 dB VORTEX COUNT_PLASMODESMA_01-METHHB [PART 1]_CM16_[ver2].wav

DR7 -0.30 dB -7.96 dB VORTEX COUNT_PLASMODESMA_02 PHLOEM_CM16_[ver2].wav

DR11 -1.39 dB -15.95 dB VORTEX COUNT_PLASMODESMA_02[-]_CM16.wav

DR5 -0.30 dB -6.37 dB VORTEX COUNT_PLASMODESMA_03 TEKKHRA_[ver2].wav

DR6 -0.30 dB -7.89 dB VORTEX COUNT_PLASMODESMA_04 METHHB [PART 2]_CM16_[ver2].wav

----------------------------------------------------------------------------------------------

Number of files: 5

Official DR value: DR7

==============================================================================================

license

all rights reserved

tags

about

DETROIT UNDERGROUND Detroit, Michigan

デトロイト
アンダーグラウンド
Detroit Underground (est. 1997) is a multidisciplinary arts collective. Functioning primarily as a record label dedicated to electronic based experimental music and video installation.

contact / help

Contact DETROIT UNDERGROUND

Streaming and
Download help

Redeem code

If you like Plasmodesma, you may also like: